<?xml version="1.0" standalone="no"?>
<!DOCTYPE svg PUBLIC "-//W3C//DTD SVG 1.1//EN" "http://www.w3.org/Graphics/SVG/1.1/DTD/svg11.dtd" >
<svg xmlns="http://www.w3.org/2000/svg">
<metadata>Generated by IcoMoon</metadata>
<defs>
<font id="icomoon" horiz-adv-x="1024">
<font-face units-per-em="1024" ascent="960" descent="-64" />
<missing-glyph horiz-adv-x="1024" />
<glyph unicode="&#x20;" horiz-adv-x="512" d="" />
<glyph unicode="&#xe8f8;" glyph-name="minus" d="M0 512h1024v-128h-1024v128z" />
<glyph unicode="&#xe900;" glyph-name="pause" d="M213.333-63.999c-51.2 0-85.333 34.133-85.333 85.333v853.334c0 51.2 34.133 85.333 85.333 85.333s85.333-34.133 85.333-85.333v-853.334c0-42.667-34.133-85.333-85.333-85.333zM810.667-63.999c-51.2 0-85.333 34.133-85.333 85.333v853.334c0 51.2 34.133 85.333 85.333 85.333s85.333-34.133 85.333-85.333v-853.334c0-42.667-34.133-85.333-85.333-85.333z" />
<glyph unicode="&#xe901;" glyph-name="chevron-thin" d="M678.4 448l-365.619 379.904c-13.722 13.824-13.722 36.198 0 50.125 13.722 13.824 35.891 13.824 49.613 0l400.896-404.89c13.722-13.875 13.722-36.301 0-50.125l-400.896-404.89c-13.722-13.875-35.891-13.824-49.613 0-13.722 13.773-13.722 36.198 0 50.125l365.619 379.75z" />
<glyph unicode="&#xe902;" glyph-name="rss-square" d="M928 960h-832c-52.8 0-96-43.2-96-96v-832c0-52.8 43.2-96 96-96h832c52.8 0 96 43.2 96 96v832c0 52.8-43.2 96-96 96zM279 128.8c-48 0-87 38.6-87 86.6 0 47.6 39 86.8 87 86.8 48.2 0 87-39.2 87-86.8 0-48-39-86.6-87-86.6zM497.4 128c0 81.8-31.8 158.8-89.4 216.4-57.8 57.8-134.4 89.6-216 89.6v125.2c237.6 0 431.2-193.4 431.2-431.2h-125.8zM719.6 128c0 291-236.6 528-527.4 528v125.2c360 0 653-293.2 653-653.2h-125.6z" />
<glyph unicode="&#xe903;" glyph-name="chevron-thick" d="M663.040 411.802l36.198 36.198-289.638 289.638-72.397-72.397 217.19-217.242-217.19-217.242 72.397-72.397 253.44 253.44z" />
<glyph unicode="&#xe904;" glyph-name="arrow" d="M0 495.47h949.404v-101.722h-949.404v101.722zM759.523 183.523l-74.596 74.596 189.881 189.881-189.881 196.662 74.596 67.815 264.477-264.477z" />
<glyph unicode="&#xe905;" glyph-name="bell" d="M937.431 108.622h-850.708c-21.732 0.027-39.338 17.649-39.338 39.385 0 13.027 6.325 24.577 16.071 31.746l0.109 0.077c0.827 0.67 125.558 100.431 125.558 431.734 0 192.118 144.857 348.436 322.954 348.436s322.954-156.318 322.954-348.436c0-331.264 124.692-431.065 126.031-432.010 9.496-7.336 15.553-18.726 15.553-31.531 0-4.5-0.748-8.826-2.127-12.859l0.083 0.28c-5.387-15.665-19.959-26.737-37.13-26.821h-0.010zM170.337 187.391h683.52c-44.662 70.892-97.595 201.807-97.595 424.172 0 148.677-109.529 269.666-244.185 269.666s-244.185-120.99-244.185-269.666c0-222.366-52.933-353.28-97.556-424.172zM512.077-64.001c-39.816 0.010-74.604 21.527-93.38 53.565l-0.276 0.51c-2.826 5.295-4.487 11.582-4.487 18.256 0 21.752 17.633 39.385 39.385 39.385 13.91 0 26.136-7.211 33.143-18.1l0.094-0.156c5.269-8.895 14.818-14.766 25.738-14.766s20.469 5.871 25.662 14.628l0.076 0.138c7.101 11.044 19.327 18.256 33.237 18.256 21.752 0 39.385-17.633 39.385-39.385 0-6.674-1.66-12.96-4.59-18.468l0.103 0.213c-19.171-32.565-54.052-54.075-93.956-54.075-0.047 0-0.094 0-0.141 0h0.007z" />
<glyph unicode="&#xe906;" glyph-name="close" d="M567.69 448l444.77 444.77c6.84 7.075 11.056 16.726 11.056 27.361 0 21.752-17.633 39.385-39.385 39.385-10.635 0-20.286-4.215-27.372-11.066l-444.759-444.759-444.77 444.77c-7.075 6.84-16.726 11.056-27.361 11.056-21.752 0-39.385-17.633-39.385-39.385 0-10.635 4.215-20.286 11.066-27.372l444.759-444.759-444.77-444.77c-7.418-7.172-12.024-17.212-12.024-28.329 0-21.752 17.633-39.385 39.385-39.385 11.116 0 21.157 4.606 28.318 12.013l444.781 444.781 444.77-444.77c7.075-6.84 16.726-11.056 27.361-11.056 21.752 0 39.385 17.633 39.385 39.385 0 10.635-4.215 20.286-11.066 27.372l0.011-0.011z" />
<glyph unicode="&#xe907;" glyph-name="info-circle" d="M512 960c-282.77 0-512-229.23-512-512s229.23-512 512-512c282.77 0 512 229.23 512 512v0c-0.336 282.635-229.365 511.664-511.968 512h-0.032zM512 14.769c-239.267 0-433.231 193.964-433.231 433.231s193.964 433.231 433.231 433.231c239.267 0 433.231-193.964 433.231-433.231v0c-0.291-239.15-194.081-432.94-433.203-433.231h-0.028zM512 462.1c-21.752 0-39.385-17.633-39.385-39.385v0-148.598c0-21.752 17.633-39.385 39.385-39.385s39.385 17.633 39.385 39.385v0 148.598c0 21.752-17.633 39.385-39.385 39.385v0zM539.963 665.009c-7.277 6.885-17.126 11.118-27.963 11.118s-20.686-4.233-27.982-11.136l0.019 0.018c-7.064-7.198-11.424-17.072-11.424-27.963s4.36-20.765 11.43-27.969l-0.006 0.006c3.649-3.455 7.963-6.252 12.724-8.173l0.273-0.097c4.411-1.931 9.545-3.083 14.941-3.151h0.025c2.86 0.096 5.575 0.378 8.229 0.838l-0.352-0.050c2.66 0.471 5.039 1.293 7.229 2.429l-0.139-0.066c2.705 0.94 5.048 2.139 7.19 3.61l-0.101-0.066c2.206 1.563 4.132 3.114 5.959 4.772l-0.051-0.046c6.937 7.275 11.257 17.099 11.421 27.931v0.032c0.007 0.259 0.011 0.563 0.011 0.869 0 5.121-1.166 9.97-3.248 14.295l0.086-0.198c-2.018 5.034-4.815 9.348-8.288 13.016l0.017-0.019z" />
<glyph unicode="&#xe908;" glyph-name="phone-ring" d="M994.481 192.346l-147.985 148.068c-19.060 18.964-45.34 30.686-74.358 30.686-0.206 0-0.412-0.001-0.618-0.002h0.032c-0.019 0-0.042 0-0.065 0-30.743 0-58.555-12.547-78.596-32.799l-57.626-57.598c-63.577 33.641-118.219 73.838-166.142 120.858l0.11-0.108c-46.983 47.821-87.242 102.47-119.103 162.273l-1.841 3.786 57.671 57.616c20.206 19.775 32.734 47.327 32.734 77.803 0 29.502-11.739 56.261-30.8 75.863l-147.933 148.071c-19.020 19.044-45.309 30.825-74.349 30.825-0.258 0-0.516-0.001-0.773-0.003h0.040c-30.068-0.003-57.336-11.992-77.285-31.451l0.023 0.022c-51.548-46.674-87.563-109.653-99.894-180.752l-0.272-1.89c-33.278-162.472 43.184-318.846 263.907-539.65 246.577-246.495 457.063-265.645 515.726-265.645 0.463-0.004 1.009-0.006 1.557-0.006 7.042 0 13.998 0.363 20.852 1.071l-0.858-0.072c76.813 4.020 143.767 42.964 185.736 101.129l0.494 0.72c18.069 19.828 29.135 46.313 29.135 75.381 0 29.27-11.22 55.921-29.593 75.884l0.072-0.080zM945.364 80.978c-32.077-46.424-84.38-76.897-143.891-78.609l-0.259-0.006s-4.94-0.551-14.156-0.551c-52.428 0-241.473 17.826-470.776 247.046-203.531 203.669-274.889 343.321-246.577 482.034 9.193 58.169 37.304 108.556 77.722 145.784l0.175 0.159 1.904 1.408 1.655 1.655c8.581 8.762 20.503 14.224 33.701 14.321h0.018c0.122 0.001 0.267 0.002 0.412 0.002 11.543 0 21.997-4.66 29.585-12.201l148.121-147.983c7.553-8.065 12.192-18.941 12.192-30.9 0-12.949-5.439-24.628-14.158-32.878l-0.021-0.020-66.28-66.362c-7.902-9.074-12.72-21.013-12.72-34.080 0-9.738 2.676-18.85 7.333-26.643l-0.131 0.238c37.409-71.583 82.453-133.064 135.316-186.836l-0.107 0.109c53.53-52.618 114.845-97.558 182.007-132.882l4.223-2.024c7.948-4.521 17.446-7.222 27.567-7.312h0.027c0.025 0 0.055 0 0.084 0 15.393 0 29.185 6.854 38.491 17.676l0.057 0.067 61.203 61.175c8.596 8.733 20.536 14.154 33.742 14.184h0.006c0.126 0.001 0.276 0.002 0.426 0.002 11.541 0 22.001-4.625 29.629-12.122l-0.006 0.006 147.626-147.847c6.716-8.433 10.776-19.242 10.776-30.998 0-13.924-5.695-26.517-14.882-35.579l-0.006-0.006zM620.365 802.002c127.807-21.828 227.118-121.642 247.94-247.918l0.238-1.749c1.784-15.994 15.22-28.319 31.538-28.339h0.002c0.034 0 0.073 0 0.112 0 1.186 0 2.354 0.071 3.503 0.207l-0.139-0.014c16.003 1.788 28.332 15.242 28.332 31.574 0 1.212-0.068 2.409-0.2 3.586l0.013-0.144c-24.364 157.573-146.775 280.61-301.991 305.653l-2.091 0.279c-0.817 0.075-1.769 0.117-2.73 0.117-17.556 0-31.788-14.232-31.788-31.788 0-15.958 11.76-29.17 27.087-31.443l0.173-0.021zM590.675 668.917c75.632-15.6 134.153-74.399 149.133-148.947l0.204-1.217c1.784-15.994 15.22-28.319 31.538-28.339h0.002c0.033 0 0.072 0 0.11 0 1.177 0 2.336 0.071 3.476 0.207l-0.137-0.013c16.015 1.777 28.357 15.236 28.357 31.577 0 1.202-0.067 2.388-0.197 3.555l0.013-0.143c-18.49 105.335-100.068 187.332-203.667 206.222l-1.547 0.234c-0.817 0.075-1.769 0.117-2.73 0.117-17.556 0-31.788-14.232-31.788-31.788 0-15.958 11.76-29.17 27.087-31.443l0.173-0.021z" />
<glyph unicode="&#xe909;" glyph-name="search" d="M1008.998 23.398l-188.518 188.518c63.002 78.29 101.123 178.922 101.123 288.457 0 255.143-206.834 461.978-461.978 461.978s-461.978-206.834-461.978-461.978c0-255.143 206.834-461.978 461.978-461.978 109.536 0 210.167 38.121 289.352 101.82l-0.895-0.696 188.518-188.518c9.198-8.892 21.744-14.372 35.569-14.372 28.277 0 51.2 22.923 51.2 51.2 0 13.826-5.48 26.371-14.386 35.584l0.014-0.014zM102.4 499.2c0 0.098 0 0.214 0 0.331 0 197.939 160.461 358.4 358.4 358.4s358.4-160.461 358.4-358.4c0-98.657-39.862-188.003-104.359-252.812l0.014 0.014c-0.307-0.256-0.666-0.358-0.973-0.614s-0.358-0.666-0.614-0.973c-64.761-64.287-153.974-104.017-252.467-104.017-197.823 0-358.213 160.274-358.4 358.054v0.018z" />
<glyph unicode="&#xe90a;" glyph-name="subscribe" d="M1013.353 949.353c-6.836 7.442-16.612 12.090-27.475 12.090-3.659 0-7.195-0.527-10.536-1.51l0.264 0.066-951.41-334.881c-13.724-5.385-23.265-18.516-23.265-33.875s9.54-28.49 23.018-33.79l0.246-0.085 411.342-184.378 184.378-415.698c5.987-12.678 18.667-21.293 33.36-21.293 0.011 0 0.022 0 0.033 0h-0.002c15.229 0.427 28.046 10.298 32.831 23.946l0.077 0.251 335.849 951.41c1.287 3.566 2.031 7.682 2.031 11.971 0 10.078-4.107 19.196-10.739 25.773l-0.002 0.002zM134.533 586.888l705.573 246.805-366.82-397.308zM650.888 70.533l-135.501 304.393 387.146 421.989z" />
<glyph unicode="&#xe90b;" glyph-name="plus" d="M1024 512h-448v448h-128v-448h-448v-128h448v-448h128v448h448v128z" />
<glyph unicode="&#xe90c;" glyph-name="print" d="M875.163 644.465h-35.721v256c0 35.721-23.814 59.535-59.535 59.535h-541.767c-35.721 0-59.535-23.814-59.535-59.535v-256h-29.767c-83.349 0-148.837-65.488-148.837-148.837v-226.233c0-83.349 65.488-154.791 148.837-148.837h29.767v-125.023c0-35.721 23.814-59.535 59.535-59.535h547.721c29.767 0 59.535 23.814 53.581 59.535v119.070h35.721c83.349 0 148.837 71.442 148.837 154.791v226.233c0 83.349-65.488 148.837-148.837 148.837zM297.674 840.93h428.651v-196.465h-428.651v196.465zM720.372 55.070h-422.698v244.093h422.698v-244.093zM904.93 263.442c0-17.86-11.907-29.767-29.767-29.767h-35.721v125.023c0 35.721-23.814 59.535-59.535 59.535h-541.767c-35.721 0-59.535-23.814-59.535-59.535v-119.070h-29.767c-17.86 0-29.767 11.907-29.767 29.767v226.233c0 11.907 11.907 29.767 29.767 29.767h726.326c17.86 0 29.767-11.907 29.767-29.767v-232.186z" />
<glyph unicode="&#xe90d;" glyph-name="share" d="M908.023 261.718c-71.803 72.323-187.832 74.405-263.279 5.724l-210.206 132.68c10.927 34.861 10.927 72.323 1.041 107.704l206.044 124.875c74.405-70.762 193.036-69.722 265.88 3.122 35.901 35.901 55.674 83.77 55.674 134.241 0 50.991-19.772 98.86-54.633 133.2l-34.861 43.186v-15.61c-73.364 46.308-172.224 37.462-236.222-26.536-48.91-48.91-67.12-120.712-48.91-186.793l-206.044-124.355c-74.405 70.762-193.036 69.722-265.88-3.122-74.405-73.884-74.405-194.597 0-269.522 72.323-72.323 188.873-73.884 263.279-5.724l210.206-132.68c-20.293-67.12-2.602-139.964 47.349-190.434 35.901-35.901 83.77-55.674 134.241-55.674v0c50.471 0 98.339 19.772 134.761 55.674 35.901 35.901 55.674 83.77 55.674 134.241 0 48.91-18.211 95.218-53.592 132.16l-2.602 2.602zM709.784 62.959c-34.861 34.861-34.861 92.096 0 127.477 34.861 34.861 92.096 34.861 126.956 0s34.861-92.096 0-126.956c-34.861-34.861-92.096-34.861-126.956 0zM709.784 834.063c17.171 17.171 39.544 26.536 63.478 26.536v0c23.934 0 46.308-9.366 63.478-26.536 34.861-34.861 34.861-92.096 0-126.956s-91.575-34.861-126.956 0c-34.861 34.861-34.861 92.096 0 126.956zM315.907 519.273c34.861-34.861 34.861-92.096 0-126.956-34.34-34.34-89.494-34.861-124.875-2.081l-4.163 7.805h-3.642c-29.658 35.381-27.576 88.453 5.203 121.233 34.861 34.861 92.096 34.861 126.956 0z" />
<glyph unicode="&#xe90e;" glyph-name="text-size-decrease" d="M451.81 441.6h120.381l180.571-505.6h-108.343l-36.114 108.343h-192.61l-30.095-108.343h-114.362l180.571 505.6zM445.79 128.61h132.419l-66.21 198.629-66.21-198.629z" />
<glyph unicode="&#xe90f;" glyph-name="text-size-default" d="M605.462 710.4h-186.924l-273.71-774.4h166.897l53.407 160.221h287.062l46.731-160.221h180.248l-273.71 774.4zM411.862 229.739l100.138 300.414 100.138-300.414h-200.276z" />
<glyph unicode="&#xe910;" glyph-name="text-size-increase" d="M392.409 960h231.708l373.723-1024h-231.708l-67.27 209.285h-381.197l-67.27-209.285h-224.234l366.248 1024zM384.934 324.671h269.080l-134.54 411.095-134.54-411.095z" />
<glyph unicode="&#xe911;" glyph-name="rss" d="M136.293 209.070c-75.196 0-136.292-61.334-136.292-136.076 0-75.154 61.1-135.802 136.292-135.802 75.466 0 136.494 60.648 136.494 135.802-0.002 74.742-61.024 136.076-136.494 136.076zM0.155 612.070v-196.258c127.784 0 247.958-49.972 338.458-140.512 90.384-90.318 140.282-211.036 140.282-339.3h197.122c-0.002 372.82-303.282 676.070-675.862 676.070zM0.387 960v-196.356c455.782 0 826.756-371.334 826.756-827.644h196.856c0 564.47-459.254 1024-1023.612 1024z" />
<glyph unicode="&#xe912;" glyph-name="tiktok" d="M534.613 959.141c55.892 0.853 111.359 0.427 166.825 0.853 3.413-65.279 26.88-131.838 74.666-177.918 47.786-47.359 115.199-69.119 180.905-76.372v-171.945c-61.439 2.133-123.306 14.933-179.198 41.386-24.32 11.093-46.932 25.173-69.119 39.68-0.427-124.585 0.427-249.17-0.853-373.328-3.413-59.732-23.040-119.039-57.599-168.105-55.892-81.919-152.745-135.251-252.157-136.958-61.012-3.413-122.026 13.227-174.078 43.946-86.186 50.772-146.771 143.785-155.731 243.624-0.853 21.333-1.28 42.666-0.427 63.572 7.68 81.066 47.786 158.718 110.079 211.624 70.826 61.439 169.811 90.879 262.397 73.386 0.853-63.146-1.707-126.291-1.707-189.438-42.239 13.653-91.732 9.813-128.851-15.787-26.88-17.493-47.359-44.372-58.026-74.666-8.96-21.76-6.4-45.652-5.973-68.692 10.24-69.972 77.652-128.851 149.331-122.452 47.786 0.427 93.439 28.16 118.186 68.692 8.107 14.080 17.067 28.587 17.493 45.226 4.267 76.372 2.56 152.318 2.987 228.69 0.427 171.945-0.427 343.463 0.853 514.981z" />
<glyph unicode="&#xe913;" glyph-name="youtube" d="M1013.6 652.7c0 0-10 70.6-40.8 101.6-39 40.8-82.6 41-102.6 43.4-143.2 10.4-358.2 10.4-358.2 10.4h-0.4c0 0-215 0-358.2-10.4-20-2.4-63.6-2.6-102.6-43.4-30.8-31-40.6-101.6-40.6-101.6s-10.2-82.8-10.2-165.8v-77.6c0-82.8 10.2-165.8 10.2-165.8s10-70.6 40.6-101.6c39-40.8 90.2-39.4 113-43.8 82-7.8 348.2-10.2 348.2-10.2s215.2 0.4 358.4 10.6c20 2.4 63.6 2.6 102.6 43.4 30.8 31 40.8 101.6 40.8 101.6s10.2 82.8 10.2 165.8v77.6c-0.2 82.8-10.4 165.8-10.4 165.8zM406 315.1v287.8l276.6-144.4-276.6-143.4z" />
<glyph unicode="&#xe914;" glyph-name="snapchat" d="M520.789 926.165c42.24 0 185.472-11.776 253.013-163.029 22.571-50.901 17.195-137.344 12.757-206.805l-0.128-2.56c-0.512-7.68-0.939-14.72-1.28-21.76 3.2-1.92 8.661-3.84 17.109-3.84 12.8 0.683 28.117 5.12 44.075 12.843 7.040 3.755 14.677 4.437 19.797 4.437 7.765 0 15.317-1.237 21.717-3.84 19.2-6.357 31.317-20.437 31.317-35.755 0.64-19.157-16.64-35.797-51.755-49.835-3.797-1.237-8.917-3.2-14.677-5.077-19.2-5.76-48.597-15.36-56.875-34.56-3.84-9.557-2.603-22.357 5.12-37.035l0.64-0.64c2.56-5.803 65.109-148.267 204.416-171.264 10.88-1.877 18.56-11.52 17.92-21.717 0-3.2-0.64-6.357-1.92-9.6-10.24-24.277-54.315-42.155-134.229-54.229-2.517-3.883-5.12-16-6.997-24.32-1.237-7.637-3.157-15.36-5.717-23.595-3.243-11.563-11.52-17.28-23.68-17.28h-1.28c-5.76 0-13.355 1.323-22.955 3.157-15.36 3.2-32.64 5.76-54.315 5.76-12.8 0-25.557-0.64-38.955-3.157-25.6-4.437-47.915-19.797-73.515-37.717-36.395-25.557-77.909-54.955-140.544-54.955-2.56 0-5.077 0.64-7.68 0.64h-6.357c-62.635 0-103.552 28.8-139.904 54.955-25.557 17.92-47.232 33.237-72.832 37.717-13.397 1.92-26.837 3.157-39.595 3.157-23.040 0-40.875-3.797-54.272-6.357-9.003-1.835-16.683-3.157-23.040-3.157-15.957 0-22.315 9.557-24.875 17.92-2.603 8.192-3.84 16.597-5.76 24.192-1.963 7.723-4.48 21.077-7.083 24.32-81.835 9.472-125.867 27.392-136.064 52.309-1.323 2.688-2.219 6.4-2.347 9.6-0.64 10.368 7.040 19.84 17.92 21.717 139.264 23.040 201.813 165.504 204.416 171.52l0.683 1.237c7.68 14.72 9.557 27.52 5.077 37.077-8.32 18.517-37.717 28.075-56.832 34.517-5.163 1.237-10.24 3.157-14.763 5.077-47.232 18.56-53.632 39.68-51.072 54.315 3.84 20.437 28.757 33.835 49.835 33.835 6.229 0 11.52-1.237 16.341-3.157 17.92-8.277 33.664-12.8 47.104-12.8 9.984 0 16.384 2.56 19.84 4.48l-1.963 24.277c-4.181 69.376-9.6 155.776 13.099 206.379 65.664 150.485 208.469 162.005 250.624 162.005l17.877 0.64z" />
<glyph unicode="&#xe915;" glyph-name="snapchat-square" d="M853.333 279.999c0 9.333-5.333 16-14.666 18.001-60.667 12.667-106.667 55.334-132 111.334-2.667 5.333-4.667 10.667-4.667 16.667 0 30 82.667 24 82.667 66.667 0 18.001-22 29.334-38 29.334-14.666 0-26.667-10.667-42-10.667-2.667 0-5.333 0.666-8 1.334 2 25.333 3.333 51.333 3.333 76.666 0 22.667-1.334 54.667-11.333 76-32.001 69.334-93.333 110-170 110-83.334 0-146.667-31.333-183.334-110-10-21.334-12-53.333-12-76.666 0-25.333 2-50.667 4.001-76-3.333-0.666-6.666-1.334-10-1.334-14.666 0-27.334 10.667-41.334 10.667-16.667 0-36.667-11.333-36.667-30 0-41.334 82.667-36 82.667-66 0-6-2-11.333-4.667-16.667-26-56-70.666-98-132-111.334-9.333-2-14.666-8.667-14.666-18.001 0-31.333 70.666-42.666 92-46.001 6-16 3.333-44 26.667-44 17.333 0 34 6.666 51.333 6.666 70.666 0 89.333-63.334 170.667-63.334 84.666 0 100.667 63.334 172.001 63.334 17.333 0 34.666-6 52-6 22.667 0 20.666 28 26 43.334 21.334 3.333 92 14.666 92 46.001zM1023.999 768v-640c0-106-86-192-192-192h-640c-106 0-192 86-192 192v640c0 106 86 192 192 192h640c106 0 192-86 192-192z" />
<glyph unicode="&#xe916;" glyph-name="facebook" d="M608 768h160v192h-160c-123.514 0-224-100.486-224-224v-96h-128v-192h128v-512h192v512h160l32 192h-192v96c0 17.346 14.654 32 32 32z" />
<glyph unicode="&#xe917;" glyph-name="instagram" d="M512 867.597c136.693 0 152.846-0.521 206.864-2.988 34.234-0.425 66.84-6.847 96.994-18.26l-1.951 0.649c44.836-17.609 79.657-52.43 96.867-96.115l0.399-1.151c10.786-28.197 17.232-60.801 17.68-94.851l0.001-0.193c2.467-53.982 2.988-70.17 2.988-206.864s-0.521-152.846-2.988-206.864c-0.425-34.234-6.847-66.84-18.26-96.994l0.649 1.951c-17.609-44.836-52.43-79.657-96.115-96.867l-1.151-0.399c-28.253-10.748-60.916-17.137-95.021-17.506l-0.16-0.001c-53.982-2.467-70.17-2.988-206.864-2.988s-152.846 0.521-206.864 2.988c-34.234 0.425-66.84 6.847-96.994 18.26l1.951-0.649c-44.836 17.609-79.657 52.43-96.867 96.115l-0.399 1.151c-10.771 28.203-17.194 60.81-17.61 94.864l-0.001 0.179c-2.396 54.086-2.917 70.17-2.917 206.933s0.521 152.846 2.988 206.864c0.425 34.234 6.847 66.84 18.26 96.994l-0.649-1.951c17.609 44.836 52.43 79.657 96.115 96.867l1.151 0.399c28.197 10.786 60.801 17.232 94.851 17.68l0.193 0.001c53.982 2.467 70.17 2.988 206.864 2.988zM512 960.071c-138.951 0-156.32-0.59-211.067-3.091-44.869-0.935-87.444-9.583-126.835-24.662l2.578 0.867c-68.955-27.203-122.517-80.767-149.101-147.946l-0.619-1.774c-14.213-36.814-22.86-79.388-23.789-123.859l-0.007-0.398c-2.501-54.886-3.091-72.255-3.091-211.206s0.59-156.32 3.091-211.067c0.935-44.869 9.583-87.444 24.662-126.835l-0.867 2.578c27.203-68.955 80.767-122.517 147.946-149.101l1.774-0.619c36.814-14.213 79.388-22.86 123.859-23.789l0.398-0.007c54.608-2.501 72.046-3.091 211.067-3.091s156.32 0.59 211.067 3.091c44.869 0.935 87.444 9.583 126.835 24.662l-2.578-0.867c68.955 27.203 122.517 80.767 149.101 147.946l0.619 1.774c14.213 36.814 22.86 79.388 23.789 123.859l0.007 0.398c2.501 54.747 3.091 72.116 3.091 211.067s-0.59 156.32-3.091 211.067c-0.935 44.869-9.583 87.444-24.662 126.835l0.867-2.578c-27.203 68.955-80.767 122.517-147.946 149.101l-1.774 0.619c-36.814 14.213-79.388 22.86-123.859 23.789l-0.398 0.007c-54.747 2.501-72.116 3.091-211.067 3.091zM512 710.792c-0.052 0-0.113 0-0.174 0-145.174 0-262.861-117.687-262.861-262.861s117.687-262.861 262.861-262.861c145.174 0 262.861 117.687 262.861 262.861 0 0.024 0 0.049 0 0.073v-0.004c-0.039 145.083-117.612 262.692-262.678 262.792h-0.009zM512 277.264c-0.052 0-0.113 0-0.174 0-94.237 0-170.632 76.395-170.632 170.632s76.395 170.632 170.632 170.632c94.201 0 170.572-76.335 170.632-170.522v-0.005c0-0.031 0-0.068 0-0.104 0-94.176-76.296-170.533-170.449-170.632h-0.009zM846.594 721.178c0-33.92-27.497-61.417-61.417-61.417s-61.417 27.497-61.417 61.417c0 33.92 27.497 61.417 61.417 61.417s61.417-27.497 61.417-61.417z" />
<glyph unicode="&#xe918;" glyph-name="linkedin" d="M18.624 618.696h210.933v-682.652h-210.933zM124.135 960c68.558 0 124.135-55.577 124.135-124.135s-55.577-124.135-124.135-124.135c-68.558 0-124.135 55.577-124.135 124.135v0c0 68.558 55.577 124.135 124.135 124.135v0zM366.209-64h210.977v335.327c0 86.886 18.624 173.728 124.091 173.728 111.747 0 111.747-99.23 111.747-179.964v-328.916h210.977v372.489c0 186.245-37.293 322.68-254.462 322.68-3.939 0.264-8.537 0.415-13.17 0.415-80.062 0-149.632-44.928-184.869-110.948l-0.55-1.127v99.013h-204.825z" />
<glyph unicode="&#xe919;" glyph-name="twitter" d="M322.474 32.841c385.612 0 596.473 319.475 596.473 596.473q0 13.61-0.614 27.089c41.153 29.996 75.847 65.903 103.614 106.886l0.96 1.503c-35.052-15.954-75.714-27.574-118.351-32.802l-2.029-0.203c43.342 26.257 75.931 66.549 91.767 114.466l0.426 1.486c-38.326-23.032-82.925-40.598-130.421-50.168l-2.696-0.453c-38.365 40.742-92.661 66.111-152.883 66.111-115.884 0-209.826-93.943-209.826-209.826 0-16.843 1.985-33.225 5.733-48.92l-0.288 1.428c-174.574 9.016-328.132 91.946-431.127 217.85l-0.841 1.061c-17.873-30.23-28.433-66.62-28.433-105.475 0-72.36 36.623-136.168 92.345-173.896l0.739-0.472c-35.019 1.118-67.571 10.7-95.979 26.756l1.039-0.54v-2.683c0.014-101.082 71.536-185.455 166.732-205.289l1.361-0.237c-16.515-4.675-35.481-7.363-55.076-7.363-14.010 0-27.698 1.374-40.939 3.995l1.332-0.22c27.642-83.896 104.539-143.71 195.656-145.463l0.206-0.003c-70.788-55.942-161.325-89.737-259.754-89.737-0.221 0-0.442 0-0.664 0h0.035c-0.010 0-0.021 0-0.033 0-17.61 0-34.974 1.057-52.030 3.111l2.056-0.202c90.676-59.049 201.636-94.165 320.801-94.165 0.193 0 0.386 0 0.58 0h-0.029z" />
<glyph unicode="&#xe91a;" glyph-name="vimeo" d="M1023.657 686.027c-4.601-99.611-74.208-236.226-208.823-409.446-139.216-180.82-257.029-271.43-353.439-271.43-59.607 0-110.212 55.006-151.417 165.218-27.603 101.011-55.006 202.023-82.609 303.034-30.603 110.212-63.407 165.218-98.611 165.218-7.601 0-34.404-16.202-80.409-48.205l-48.205 62.007c50.606 44.405 100.411 88.81 149.417 133.215 67.408 58.207 118.013 88.81 151.817 92.010 79.609 7.601 128.814-46.805 147.216-163.418 19.802-125.814 33.604-204.023 41.405-234.626 23.003-104.412 48.205-156.618 75.808-156.618 21.402 0 53.606 33.804 96.611 101.611 42.805 67.608 65.807 119.213 69.008 154.617 6.201 58.407-16.802 87.81-69.008 87.81-24.603 0-49.806-5.601-75.808-16.802 50.406 164.818 146.416 244.827 288.432 240.227 105.012-2.8 154.617-71.008 148.617-204.423z" />
<glyph unicode="&#xe91b;" glyph-name="pinterest" d="M118.155 592.615c0 227.077 208 367.385 418.46 367.385 193.231 0 369.231-132.923 369.231-336.616 0-191.384-97.845-403.692-315.693-403.692-51.692 0-116.922 25.846-142.153 73.845-46.77-185.23-43.077-212.922-146.461-354.462l-8.615-3.076-5.539 6.154c-3.693 38.769-9.23 76.924-9.23 115.693 0 125.537 57.846 307.077 86.154 428.923-15.385 31.385-19.692 69.538-19.692 103.999 0 62.153 43.077 140.922 113.231 140.922 51.692 0 79.384-39.384 79.384-88 0-80-54.154-155.076-54.154-232.615 0-52.923 43.691-89.847 94.769-89.847 141.539 0 185.23 204.307 185.23 313.231 0 145.846-103.384 225.231-243.076 225.231-162.46 0-288.001-116.922-288.001-281.846 0-79.384 48.616-120 48.616-139.077 0-15.999-11.692-72.616-32-72.616-3.076 0-7.384 1.231-10.461 1.846-88 26.461-120 143.999-120 224.614z" />
<glyph unicode="&#xe91c;" glyph-name="howDoI" d="M-3.938 853.662h1024v-78.769h-1024v78.769zM-3.938 483.446h708.923v-78.769h-708.923v78.769zM-3.938 121.108h866.462v-78.769h-866.462v78.769z" />
<glyph unicode="&#xe91d;" glyph-name="apply" horiz-adv-x="1039" d="M409.6 270.019h-221.867c-7.314 0-14.629-2.438-19.505-9.752-2.438-4.876-4.876-9.752-4.876-14.629 0-2.438 0-2.438 0-4.876 0 0 0 0 0-2.438 2.438-9.752 12.19-19.505 24.381-19.505h224.305c7.314 0 14.629 2.438 19.505 9.752 4.876 4.876 7.314 12.19 4.876 19.505 0 7.314-4.876 12.19-9.752 17.067-7.314 2.438-12.19 4.876-17.067 4.876zM187.733 343.162h304.762c0 0 0 0 0 0 2.438 0 2.438 0 4.876 0s4.876 2.438 7.314 2.438c2.438 2.438 4.876 4.876 7.314 7.314 2.438 4.876 4.876 9.752 4.876 14.629 0 2.438 0 2.438 0 4.876 0 0 0 0 0 2.438-2.438 9.752-12.19 19.505-24.381 19.505h-304.762c-7.314 0-14.629-2.438-19.505-9.752-4.876-4.876-4.876-12.19-4.876-17.067 0-7.314 4.876-12.19 9.752-17.067 2.438-7.314 9.752-7.314 14.629-7.314zM187.733 465.067h446.171c0 0 2.438 0 2.438 0 7.314 0 12.19 4.876 17.067 9.752 2.438 4.876 4.876 9.752 4.876 14.629 0 2.438 0 2.438 0 4.876 0 0 0 2.438 0 2.438-2.438 9.752-12.19 19.505-24.381 19.505h-446.171c0 0-2.438 0-2.438 0-7.314 0-12.19-4.876-17.067-9.752s-4.876-12.19-4.876-17.067c0-7.314 4.876-12.19 9.752-17.067 4.876-7.314 9.752-7.314 14.629-7.314zM187.733 586.971h446.171c0 0 2.438 0 2.438 0 7.314 0 12.19 4.876 17.067 9.752 2.438 4.876 4.876 9.752 4.876 14.629 0 2.438 0 2.438 0 4.876 0 0 0 2.438 0 2.438-2.438 9.752-12.19 19.505-24.381 19.505h-446.171c0 0-2.438 0-2.438 0-7.314 0-12.19-4.876-17.067-9.752s-4.876-12.19-4.876-17.067c0-7.314 4.876-12.19 9.752-17.067 4.876-7.314 9.752-7.314 14.629-7.314zM1016.686 572.343l-56.076 56.076c-24.381 24.381-65.829 24.381-90.21 0l-51.2-51.2v156.038c0 0 0 0 0 2.438s0 4.876-2.438 7.314c0 0 0 2.438 0 2.438 0 2.438-2.438 4.876-4.876 7.314l-202.362 199.924c0 0 0 0 0 0-2.438 2.438-4.876 2.438-7.314 4.876 0 0-2.438 0-2.438 0-2.438 0-4.876 0-7.314 2.438 0 0 0 0-2.438 0h-487.619c-56.076 0-102.4-46.324-102.4-104.838v-811.886c0-60.952 46.324-107.276 104.838-107.276h609.524c0 0 0 0 0 0 29.257 0 53.638 12.19 75.581 31.695s31.695 46.324 31.695 75.581v243.81l141.41 141.41c0 0 0 0 0 0l56.076 56.076c21.943 21.943 21.943 63.39-2.438 87.771zM616.838 757.638v119.467l119.467-119.467h-119.467zM772.876 40.838c0-14.629-4.876-29.257-17.067-41.448s-24.381-14.629-41.448-14.629v0h-609.524c-31.695 0-56.076 24.381-56.076 56.076v814.324c0 31.695 24.381 56.076 56.076 56.076h463.238v-177.981c0-14.629 9.752-24.381 24.381-24.381h177.981v-180.419l-246.248-248.686c0 0 0 0 0 0-2.438-2.438-2.438-4.876-4.876-7.314 0 0 0-2.438 0-2.438s0 0 0-2.438v0c0 0 0 0 0 0l-41.448-151.162c-2.438-7.314 0-17.067 7.314-24.381 2.438-2.438 4.876-2.438 7.314-4.876 0 0 0 0 2.438 0 4.876-2.438 9.752-2.438 14.629 0l151.162 41.448c0 0 2.438 0 2.438 0s0 0 2.438 0 4.876 2.438 7.314 4.876l102.4 102.4v-195.048zM553.448 216.381l51.2-51.2-68.267-19.505 17.067 70.705zM650.971 187.124l-75.581 75.581 258.438 258.438 75.581-75.581-258.438-258.438zM982.552 516.267l-39.010-39.010-75.581 75.581 39.010 39.010c4.876 4.876 14.629 4.876 21.943 0l56.076-56.076c2.438-2.438 2.438-12.19-2.438-19.505z" />
<glyph unicode="&#xe91e;" glyph-name="involved" horiz-adv-x="1032" d="M898.56 965.12c0 0 0 0 0 0h-432.64c-74.24 0-135.68-61.44-138.24-138.24v-43.52c-46.080-2.56-84.48-20.48-112.64-53.76-53.76-71.68-38.4-179.2-35.84-194.56 0-84.48 46.080-161.28 107.52-204.8v-10.24c0-20.48-10.24-35.84-20.48-35.84 0 0-2.56 0-2.56 0s-2.56 0-2.56 0l-61.44-15.36c-128-30.72-204.8-117.76-204.8-225.28v-84.48c0-15.36 10.24-25.6 25.6-25.6h744.96c15.36 0 25.6 10.24 25.6 25.6v84.48c0 107.52-79.36 194.56-204.8 225.28l-61.44 15.36c0 0-2.56 0-2.56 0s-2.56 0-2.56 0c-10.24 0-20.48 15.36-20.48 35.84v7.68c33.28 23.040 61.44 56.32 81.92 94.72h110.080v-33.28c0-20.48 10.24-38.4 30.72-46.080 7.68-2.56 15.36-5.12 23.040-5.12 17.92 0 35.84 5.12 46.080 17.92l64 66.56h48.64c74.24 0 135.68 61.44 138.24 138.24v266.24c-5.12 76.8-66.56 138.24-143.36 138.24zM256 696.32c17.92 23.040 43.52 35.84 76.8 38.4 0 0 2.56 0 2.56 0 5.12 0 7.68 0 12.8-2.56 0 0 0 0 0 0 10.24 0 17.92-2.56 25.6-5.12 0 0 2.56 0 2.56 0 7.68-2.56 15.36-5.12 23.040-7.68 0 0 0 0 0 0 28.16-10.24 58.88-23.040 89.6-23.040 23.040 0 43.52 7.68 61.44 20.48v-79.36c0 0 0 0 0 0-2.56 0-2.56 2.56-5.12 2.56-5.12 2.56-7.68 5.12-12.8 7.68-2.56 0-5.12 2.56-7.68 2.56-5.12 2.56-7.68 2.56-12.8 5.12 0-2.56-2.56-2.56-5.12-2.56-5.12 0-12.8 2.56-17.92 2.56 0 0-2.56 0-2.56 0s0 0 0 0h-186.88c0 0-2.56 0-2.56 0-5.12 0-12.8 0-17.92-2.56-2.56 0-5.12-2.56-7.68-2.56-5.12 0-7.68-2.56-12.8-2.56-2.56 0-5.12-2.56-7.68-2.56-5.12-2.56-7.68-5.12-12.8-5.12-2.56-2.56-5.12-2.56-5.12-5.12 0 0 0 0 0 0 2.56 20.48 10.24 43.52 23.040 61.44zM739.84 40.96v-58.88h-693.76v58.88c0 84.48 64 151.040 166.4 176.64l33.28 7.68c0 0 0 0 0 0 2.56-7.68 5.12-15.36 7.68-23.040 0 0 0 0 0 0 2.56-7.68 7.68-15.36 10.24-20.48 0 0 0 0 0-2.56 5.12-7.68 7.68-12.8 12.8-17.92 0 0 0 0 0 0 10.24-12.8 23.040-23.040 38.4-30.72 0 0 0 0 0 0 7.68-5.12 15.36-7.68 20.48-10.24 0 0 2.56 0 2.56 0 7.68-2.56 15.36-5.12 23.040-5.12 0 0 0 0 2.56 0 7.68-2.56 15.36-2.56 25.6-2.56 7.68 0 17.92 0 25.6 2.56 0 0 2.56 0 2.56 0 7.68 2.56 15.36 2.56 23.040 5.12 0 0 2.56 0 2.56 0 7.68 2.56 15.36 5.12 20.48 10.24 0 0 0 0 2.56 0 7.68 5.12 12.8 7.68 17.92 12.8 0 0 0 0 0 0 5.12 5.12 10.24 10.24 15.36 15.36 0 0 2.56 2.56 2.56 2.56 5.12 5.12 10.24 10.24 12.8 17.92 0 0 2.56 2.56 2.56 2.56 2.56 5.12 7.68 12.8 10.24 20.48 0 0 0 2.56 0 2.56 2.56 7.68 5.12 12.8 5.12 20.48 0 0 0 2.56 0 2.56l33.28-7.68c110.080-28.16 174.080-97.28 174.080-179.2zM445.44 302.080c5.12-30.72 20.48-53.76 43.52-64 0 0 0 0 0 0 0-2.56 0-2.56-2.56-5.12 0-5.12-2.56-7.68-5.12-12.8 0-2.56-2.56-5.12-2.56-5.12-2.56-2.56-2.56-7.68-5.12-10.24 0-2.56-2.56-2.56-5.12-5.12s-5.12-5.12-7.68-7.68c-2.56-2.56-2.56-2.56-5.12-5.12s-5.12-5.12-7.68-7.68c-2.56-2.56-2.56-2.56-5.12-2.56-2.56-2.56-7.68-5.12-10.24-5.12s-2.56-2.56-5.12-2.56c-5.12-2.56-7.68-2.56-12.8-5.12-2.56 0-2.56 0-5.12 0-5.12 0-12.8-2.56-17.92-2.56-7.68 0-12.8 0-20.48 2.56 0 0-2.56 0-2.56 0-5.12 0-10.24 2.56-15.36 5.12-2.56 0-2.56 2.56-5.12 2.56-5.12 2.56-7.68 5.12-12.8 5.12-2.56 0-2.56 2.56-5.12 2.56-2.56 2.56-7.68 5.12-10.24 7.68-2.56 0-2.56 2.56-5.12 5.12s-5.12 7.68-7.68 10.24c0 2.56-2.56 2.56-2.56 5.12-2.56 5.12-5.12 7.68-7.68 12.8 0 0-2.56 2.56-2.56 2.56-2.56 5.12-5.12 12.8-5.12 17.92 23.040 10.24 38.4 35.84 43.52 64 0 0 0 0 0 0 17.92-5.12 35.84-7.68 51.2-7.68 0 0 0 0 0 0s0 0 0 0 0 0 0 0c7.68 0 17.92 0 25.6 2.56 0 0 0 0 0 0 17.92-2.56 28.16 0 35.84 2.56 0 0 0 0 0 0zM453.12 360.96c-2.56 0-2.56-2.56-5.12-2.56-2.56-2.56-7.68-2.56-10.24-5.12-2.56 0-5.12-2.56-5.12-2.56-2.56 0-5.12-2.56-7.68-2.56-5.12 0-7.68-2.56-12.8-2.56 0 0 0 0-2.56 0-5.12 0-10.24 0-15.36-2.56 0 0 0 0 0 0-10.24 0-20.48 2.56-30.72 5.12-2.56 0-5.12 2.56-7.68 2.56s-5.12 2.56-7.68 2.56c-2.56 2.56-5.12 2.56-10.24 5.12-2.56 0-5.12 2.56-5.12 2.56-53.76 30.72-99.84 94.72-99.84 174.080 0 38.4 30.72 66.56 66.56 66.56h186.88c33.28 0 58.88-23.040 66.56-53.76 0-5.12 2.56-7.68 2.56-12.8 0-25.6-5.12-53.76-15.36-76.8 0 0 0 0 0 0-20.48-43.52-53.76-76.8-87.040-97.28zM985.6 560.64c0-46.080-38.4-87.040-87.040-87.040h-58.88c-7.68 0-12.8-2.56-17.92-7.68l-71.68-74.24c-2.56-2.56-10.24-2.56-12.8-2.56v58.88c0 15.36-10.24 25.6-25.6 25.6h-115.2c0 2.56 0 5.12 2.56 7.68 0 5.12 2.56 10.24 2.56 15.36 0 2.56 0 7.68 2.56 10.24 0 10.24 2.56 17.92 2.56 28.16 0 0 0 0 0 0s0 0 0 0v240.64c0 10.24-7.68 20.48-17.92 25.6-10.24 2.56-20.48 0-25.6-7.68 0 0-2.56-2.56-2.56-2.56s-28.16-43.52-64-43.52c-20.48 0-46.080 10.24-71.68 17.92-7.68 2.56-12.8 5.12-20.48 7.68-2.56 0-7.68 2.56-10.24 2.56s-5.12 2.56-10.24 2.56v48.64c0 46.080 38.4 87.040 87.040 87.040h432.64c46.080 0 87.040-38.4 87.040-87.040v-266.24z" />
<glyph unicode="&#xe91f;" glyph-name="pay" horiz-adv-x="1009" d="M978.149 106.667v277.652c0 140.1-45.851 213.97-122.269 295.483v193.592c0 40.756-25.473 73.871-63.682 86.607h-733.612c-28.020-10.189-48.398-30.567-58.587-58.587v-496.716c12.736-35.662 45.851-63.682 86.607-63.682h430.488c2.547-2.547 2.547-5.095 5.095-7.642 0-28.020 7.642-117.174 61.134-178.308 25.473-30.567 53.493-53.493 86.607-71.323-5.095-10.189-10.189-22.925-10.189-33.114v-48.398c0-35.662 30.567-66.229 66.229-66.229h216.517c35.662 0 66.229 30.567 66.229 66.229v48.398c0 22.925-12.736 43.303-30.567 56.040zM713.234 50.627c0 7.642 5.095 12.736 10.189 15.284h224.159c5.095-2.547 10.189-7.642 10.189-15.284v-48.398c0-7.642-7.642-15.284-15.284-15.284h-213.97c-7.642 0-15.284 7.642-15.284 15.284v48.398zM104.438 914.149h639.363c33.114 0 61.134-28.020 61.134-58.587v-22.925h-759.085v22.925c0 33.114 25.473 58.587 58.587 58.587zM804.935 728.199h-759.085v50.945h759.085v-50.945zM45.851 453.095v226.706h759.085v-10.189c0-2.547 0-5.095 0-5.095v-211.423c0-33.114-28.020-58.587-58.587-58.587h-10.189c-15.284 20.378-25.473 38.209-35.662 50.945 33.114 5.095 56.040 33.114 56.040 66.229v15.284c0 38.209-30.567 68.776-68.776 68.776h-15.284c-28.020 0-53.493-17.831-63.682-43.303 0 0 0 0 0 0-28.020 22.925-61.134 33.114-96.796 30.567 0 0-2.547 0-2.547 0-28.020-5.095-50.945-25.473-61.134-50.945-12.736-28.020-12.736-58.587 2.547-86.607 7.642-12.736 22.925-33.114 35.662-53.493h-382.090c-33.114 0-58.587 28.020-58.587 61.134zM652.1 511.682v15.284c0 10.189 7.642 17.831 17.831 17.831h15.284c10.189 0 17.831-7.642 17.831-17.831v-15.284c0-10.189-7.642-17.831-17.831-17.831h-15.284c-2.547 0-7.642 2.547-10.189 2.547-2.547 2.547-5.095 5.095-7.642 10.189 0 0 0 2.547 0 5.095zM624.080 190.726c-48.398 56.040-48.398 147.741-48.398 152.836 0 2.547 0 5.095-2.547 5.095 0 0 0 0 0 0 0 2.547 0 2.547-2.547 5.095 0 2.547 0 2.547-2.547 5.095-12.736 20.378-58.587 86.607-76.418 114.627-5.095 10.189-5.095 22.925 0 35.662 0 0 0 2.547 0 2.547 2.547 5.095 5.095 7.642 7.642 10.189 0 0 2.547 2.547 2.547 2.547 2.547 0 2.547 2.547 5.095 2.547 0 0 0 0 0 0 2.547 0 5.095 2.547 7.642 2.547 20.378 0 40.756-5.095 56.040-20.378 17.831-15.284 35.662-30.567 48.398-50.945 25.473-38.209 137.552-193.592 137.552-196.139 5.095-5.095 10.189-7.642 17.831-10.189 0 0 2.547 0 2.547 0 5.095 0 12.736 2.547 17.831 5.095 10.189 7.642 12.736 22.925 5.095 33.114 0 0-2.547 5.095-7.642 10.189-10.189 12.736-17.831 25.473-28.020 38.209 48.398 2.547 86.607 43.303 86.607 91.701v165.572c48.398-58.587 71.323-117.174 71.323-216.517v-259.821h-201.234c-35.662 12.736-68.776 38.209-96.796 71.323zM356.617 577.91h-234.348c-15.284 0-25.473-12.736-25.473-28.020s10.189-25.473 25.473-25.473h234.348c15.284 0 25.473 12.736 25.473 28.020s-10.189 25.473-25.473 25.473zM356.617 511.682h-234.348c-15.284 0-25.473-12.736-25.473-28.020s10.189-25.473 25.473-25.473h234.348c15.284 0 25.473 12.736 25.473 28.020s-10.189 25.473-25.473 25.473z" />
<glyph unicode="&#xe920;" glyph-name="report" horiz-adv-x="890" d="M633.905 550.4c-14.629 0-24.381-12.19-24.381-24.381v-104.838c0-14.629 12.19-24.381 24.381-24.381 0 0 2.438 0 2.438 0 7.314 0 12.19 4.876 17.067 9.752 2.438 4.876 4.876 9.752 4.876 14.629v104.838c0 12.19-9.752 24.381-24.381 24.381zM633.905 355.352c-12.19 0-21.943-9.752-21.943-21.943s9.752-21.943 21.943-21.943c12.19 0 21.943 9.752 21.943 21.943 0 0 0 0 0 0 0 12.19-9.752 21.943-21.943 21.943zM872.838 387.048l-136.533 238.933c-17.067 29.257-46.324 48.762-75.581 56.076v173.105c-2.438 58.514-51.2 104.838-107.276 104.838 0 0 0 0 0 0h-448.61c-58.514 0-104.838-48.762-104.838-104.838v-811.886c0 0 0 0 0 0 0-60.952 46.324-107.276 104.838-107.276h446.171c58.514 0 104.838 48.762 104.838 104.838v170.667h114.59c0 0 0 0 0 0 31.695 0 60.952 12.19 82.895 34.133s34.133 51.2 34.133 82.895c0 19.505-4.876 41.448-14.629 58.514zM48.762 855.162c0 29.257 26.819 56.076 56.076 56.076h446.171c31.695 0 58.514-26.819 58.514-56.076v-56.076h-560.762v56.076zM609.524 40.838c0-31.695-26.819-56.076-56.076-56.076h-448.61c-29.257 0-56.076 26.819-56.076 56.076v56.076h560.762v-56.076zM609.524 148.114h-560.762v599.771h560.762v-68.267c-12.19-2.438-21.943-7.314-34.133-12.19-17.067-9.752-31.695-24.381-43.886-43.886l-136.533-238.933c-14.629-26.819-19.505-58.514-12.19-87.771s26.819-56.076 53.638-70.705c17.067-9.752 39.010-14.629 58.514-14.629h114.59v-63.39zM819.2 279.771c-12.19-12.19-29.257-19.505-48.762-19.505v0h-136.533c0 0 0 0 0 0s0 0 0 0h-136.533c-12.19 0-24.381 2.438-34.133 9.752-14.629 9.752-26.819 24.381-31.695 41.448s-2.438 36.571 7.314 51.2l136.533 238.933c4.876 9.752 14.629 19.505 24.381 24.381 9.752 7.314 21.943 9.752 34.133 9.752 0 0 0 0 0 0s0 0 0 0c24.381 0 46.324-12.19 58.514-34.133l136.533-238.933c4.876-9.752 9.752-21.943 9.752-34.133 0-17.067-7.314-34.133-19.505-48.762zM360.838 40.838v0 0zM319.39 21.333h21.943c12.19 0 21.943 9.752 21.943 21.943v0c0 12.19-9.752 21.943-21.943 21.943h-21.943c-12.19 0-21.943-9.752-21.943-21.943s9.752-21.943 21.943-21.943z" />
<glyph unicode="&#xe921;" glyph-name="footer-facebook" horiz-adv-x="1030" d="M1030.252 444.874c-0.044 284.463-230.657 515.049-515.126 515.049-284.496 0-515.126-230.63-515.126-515.126 0-256.076 186.853-468.51 431.654-508.398l2.971-0.399v359.877h-130.796v148.997h130.796v113.484c0 129.101 76.916 200.404 194.513 200.404 41.18-0.588 81.039-4.224 119.939-10.694l-4.62 0.635v-126.767h-64.884c-2.948 0.414-6.353 0.65-9.814 0.65-41.114 0-74.443-33.329-74.443-74.443 0-2.391 0.113-4.755 0.333-7.089l-0.023 0.298v-96.617h142.856l-22.841-148.858h-120.015v-359.877c247.774 40.335 434.616 252.783 434.625 508.872v0.002z" />
<glyph unicode="&#xe922;" glyph-name="footer-insta" d="M512-64c-282.64 0.322-511.678 229.36-512 511.969v0.031c0.337 282.634 229.365 511.662 511.967 512h0.033c282.634-0.337 511.662-229.365 512-511.967v-0.033c-0.322-282.64-229.36-511.678-511.969-512h-0.031zM512 741.376c-78.605 0-87.579-0.404-117.194-1.725-24.95-0.532-48.622-5.329-70.535-13.687l1.442 0.483c-19.723-7.528-36.535-18.685-50.371-32.774l-0.021-0.021c-14.109-13.857-25.266-30.669-32.473-49.439l-0.322-0.953c-7.877-20.453-12.683-44.104-13.227-68.806l-0.004-0.234c-1.401-30.585-1.725-40.717-1.725-117.275s0.323-86.69 1.725-117.302c0.548-24.935 5.354-48.586 13.715-70.481l-0.484 1.442c7.537-19.701 18.692-36.494 32.774-50.317l0.021-0.021c13.861-14.11 30.672-25.274 49.437-32.499l0.954-0.323c20.453-7.88 44.104-12.686 68.807-13.227l0.232-0.004c30.127-1.374 40.152-1.698 117.248-1.698s87.175 0.323 117.275 1.698c24.935 0.548 48.586 5.354 70.481 13.715l-1.442-0.484c19.711 7.547 36.513 18.711 50.344 32.801l0.021 0.021c14.101 13.849 25.263 30.64 32.498 49.383l0.324 0.954c7.869 20.454 12.665 44.107 13.2 68.809l0.004 0.23c1.374 30.073 1.698 40.125 1.698 117.302s-0.323 87.229-1.698 117.275c-0.539 24.932-5.335 48.585-13.687 70.482l0.483-1.442c-7.551 19.719-18.714 36.528-32.802 50.372l-0.020 0.020c-13.85 14.107-30.652 25.264-49.412 32.473l-0.952 0.322c-20.454 7.869-44.107 12.665-68.809 13.2l-0.23 0.004c-29.696 1.32-38.643 1.725-117.275 1.725zM512 223.744c-76.504 0-85.396 0.296-114.931 1.644-19.025 0.229-37.146 3.807-53.895 10.168l1.079-0.36c-12.821 4.801-23.741 12.047-32.666 21.24l-0.021 0.022c-9.219 8.957-16.473 19.885-21.087 32.107l-0.201 0.607c-5.977 15.673-9.544 33.793-9.781 52.715l-0.001 0.102c-1.374 29.912-1.671 38.885-1.671 114.931s0.296 84.965 1.671 114.931c0.247 19.026 3.813 37.144 10.143 53.906l-0.361-1.089c4.816 12.82 12.070 23.738 21.267 32.666l0.022 0.021c8.956 9.208 19.872 16.46 32.079 21.086l0.608 0.202c15.674 5.95 33.793 9.506 52.709 9.754l0.107 0.001c30.397 1.401 39.478 1.698 114.931 1.698s84.561-0.296 114.931-1.698c19.022-0.239 37.142-3.796 53.907-10.115l-1.090 0.361c12.825-4.827 23.75-12.079 32.695-21.269l0.019-0.020c9.202-8.954 16.446-19.871 21.060-32.080l0.201-0.607c5.996-15.671 9.573-33.791 9.808-52.716l0.001-0.101c1.374-30.1 1.644-39.128 1.644-114.931s-0.296-84.857-1.644-114.931c-0.225-19.024-3.803-37.146-10.168-53.894l0.36 1.077c-4.817-12.824-12.061-23.75-21.242-32.696l-0.019-0.019c-8.957-9.213-19.885-16.458-32.108-21.061l-0.606-0.2c-15.671-6.009-33.793-9.588-52.723-9.808l-0.094-0.001c-29.588-1.347-38.427-1.644-114.931-1.644zM512 602.947c-80.624-0.077-145.963-65.407-146.055-146.019v-0.009c0.077-80.638 65.419-145.99 146.046-146.082h0.009c80.642 0.092 145.99 65.44 146.082 146.073v0.009c-0.092 80.636-65.443 145.978-146.074 146.055h-0.007zM663.848 642.883c-18.844-0.031-34.112-15.298-34.142-34.139v-0.003c0.031-18.839 15.302-34.1 34.141-34.115h0.001c18.829 0.031 34.085 15.286 34.115 34.112v0.003c0 0 0 0 0 0 0 18.852-15.267 34.139-34.112 34.169h-0.003zM512 362.092c-52.336 0.077-94.74 42.49-94.801 94.822v0.006c0.061 52.332 42.468 94.739 94.795 94.801h0.006c52.338-0.061 94.751-42.465 94.828-94.793v-0.007c-0.077-52.336-42.49-94.74-94.822-94.801h-0.006z" />
<glyph unicode="&#xe923;" glyph-name="footer-linkedin" d="M512-64c-0.411-0.001-0.897-0.002-1.383-0.002-140.949 0-268.509 57.329-360.633 149.942l-0.022 0.022c-92.635 92.141-149.964 219.697-149.964 360.643 0 0.49 0.001 0.981 0.002 1.471v-0.076c-0.001 0.411-0.002 0.897-0.002 1.383 0 140.949 57.329 268.509 149.942 360.633l0.022 0.022c92.146 92.635 219.705 149.964 360.655 149.964 0.486 0 0.972-0.001 1.458-0.002h-0.075c0.411 0.001 0.897 0.002 1.383 0.002 140.949 0 268.509-57.329 360.633-149.942l0.022-0.022c92.635-92.146 149.964-219.705 149.964-360.655 0-0.486-0.001-0.972-0.002-1.458v0.075c0.001-0.414 0.002-0.904 0.002-1.394 0-140.946-57.329-268.502-149.942-360.621l-0.022-0.022c-92.146-92.635-219.705-149.964-360.655-149.964-0.486 0-0.972 0.001-1.458 0.002h0.075zM605.346 471.983c55.215 0 55.215-49.341 55.215-88.926v-162.573h104.313v184.051c0 95.744-21.396 159.528-125.763 159.528-1.947 0.131-4.221 0.205-6.512 0.205-39.582 0-73.974-22.218-91.386-54.863l-0.271-0.557v49.098h-101.241v-337.435h104.313v165.645c-0.148 2.259-0.233 4.898-0.233 7.556 0 18.691 4.179 36.406 11.652 52.261l-0.317-0.749c9.045 16.193 26.079 26.962 45.628 26.962 1.62 0 3.223-0.074 4.805-0.219l-0.203 0.015zM267.884 557.891v-337.435h104.313v337.435zM320.054 726.609c-33.869-0.046-61.313-27.49-61.359-61.355v-0.004c0.046-33.869 27.49-61.313 61.355-61.359h0.004c33.864 0.046 61.302 27.493 61.332 61.356v0.003c-0.031 33.856-27.453 61.298-61.299 61.359h-0.006z" />
<glyph unicode="&#xe924;" glyph-name="footer-twitter" d="M512-64c-0.411-0.001-0.897-0.002-1.383-0.002-140.949 0-268.509 57.329-360.633 149.942l-0.022 0.022c-92.635 92.141-149.964 219.697-149.964 360.643 0 0.49 0.001 0.981 0.002 1.471v-0.076c-0.001 0.407-0.002 0.89-0.002 1.372 0 140.953 57.329 268.516 149.942 360.644l0.022 0.022c92.146 92.635 219.705 149.964 360.655 149.964 0.486 0 0.972-0.001 1.458-0.002h-0.075c0.411 0.001 0.897 0.002 1.383 0.002 140.949 0 268.509-57.329 360.633-149.942l0.022-0.022c92.635-92.146 149.964-219.705 149.964-360.655 0-0.486-0.001-0.972-0.002-1.458v0.075c0.001-0.411 0.002-0.897 0.002-1.383 0-140.949-57.329-268.509-149.942-360.633l-0.022-0.022c-92.146-92.635-219.705-149.964-360.655-149.964-0.486 0-0.972 0.001-1.458 0.002h0.075zM229.43 258.776v0c50.665-32.936 112.644-52.52 179.197-52.52 0.048 0 0.097 0 0.145 0h-0.007c0.966-0.010 2.107-0.016 3.249-0.016 182.089 0 329.701 147.612 329.701 329.701 0 1.133-0.006 2.265-0.017 3.396l0.001-0.173c0 5.389 0 10.402-0.35 15.144 22.998 16.737 42.368 36.81 57.833 59.736l0.535 0.842c-19.572-8.919-42.275-15.4-66.086-18.294l-1.121-0.111c24.206 14.623 42.406 37.103 51.233 63.846l0.237 0.828c-21.394-12.91-46.292-22.763-72.812-28.147l-1.508-0.256c-21.45 22.75-51.776 36.927-85.415 36.972h-0.008c-64.601-0.061-116.956-52.407-117.032-116.998v-0.007c0-0.060 0-0.13 0-0.201 0-9.391 1.11-18.523 3.206-27.272l-0.161 0.794c-97.448 5.185-183.147 51.461-240.74 121.674l-0.466 0.586c-9.95-16.856-15.833-37.139-15.845-58.796v-0.003c0-0.039 0-0.084 0-0.13 0-40.401 20.491-76.016 51.646-97.020l0.416-0.264c-19.545 0.649-37.705 6.005-53.561 14.962l0.582-0.302c0-0.512 0-0.997 0-1.509 0.101-56.406 40.008-103.461 93.122-114.581l0.763-0.134c-9.25-2.608-19.875-4.113-30.849-4.123h-0.006c-7.787 0.016-15.385 0.78-22.74 2.225l0.751-0.123c15.375-46.871 58.307-80.301 109.185-81.272l0.113-0.002c-39.341-31.21-89.71-50.070-144.484-50.070-0.297 0-0.593 0.001-0.889 0.002h0.046c-9.821 0.003-19.503 0.59-29.014 1.729l1.151-0.112z" />
<glyph unicode="&#xe925;" glyph-name="footer-youtube" d="M512-64c-0.411-0.001-0.897-0.002-1.383-0.002-140.949 0-268.509 57.329-360.633 149.942l-0.022 0.022c-92.635 92.141-149.964 219.697-149.964 360.643 0 0.49 0.001 0.981 0.002 1.471v-0.076c-0.001 0.411-0.002 0.897-0.002 1.383 0 140.949 57.329 268.509 149.942 360.633l0.022 0.022c92.146 92.635 219.705 149.964 360.655 149.964 0.486 0 0.972-0.001 1.458-0.002h-0.075c0.411 0.001 0.897 0.002 1.383 0.002 140.949 0 268.509-57.329 360.633-149.942l0.022-0.022c92.635-92.146 149.964-219.705 149.964-360.655 0-0.486-0.001-0.972-0.002-1.458v0.075c0.001-0.414 0.002-0.904 0.002-1.394 0-140.946-57.329-268.502-149.942-360.621l-0.022-0.022c-92.146-92.635-219.705-149.964-360.655-149.964-0.486 0-0.972 0.001-1.458 0.002h0.075zM515.719 649.512c-1.186 0-119.646 0-200.327-7.411-1.376 0.107-2.979 0.168-4.597 0.168-20.933 0-39.48-10.218-50.925-25.938l-0.125-0.18c-12.453-15.515-21.538-34.274-25.828-54.793l-0.149-0.853c-4.473-27.684-7.167-59.777-7.436-92.449l-0.002-0.277v-44.544c0.525-33.191 3.21-65.271 7.926-96.686l-0.489 3.96c3.543-21.080 11.363-39.851 22.563-56.114l-0.304 0.467c14.083-12.786 32.199-21.364 52.228-23.621l0.427-0.039c4.086-0.655 7.595-1.462 11.016-2.473l-0.615 0.156c41.741-3.476 177.233-7.006 192.539-7.411h0.377c1.186 0 119.646 0 200.327 7.411 1.374-0.107 2.975-0.168 4.591-0.168 20.941 0 39.492 10.229 50.93 25.964l0.125 0.181c12.075 15.347 20.113 34.394 22.221 55.193l0.037 0.454c4.497 27.716 7.184 59.813 7.409 92.495l0.001 0.231v44.544c0.553 8.418 0.869 18.25 0.869 28.156 0 22.779-1.668 45.168-4.887 67.052l0.3-2.483c-3.501 21.084-11.327 39.862-22.558 56.105l0.3-0.459c-12.398 12.291-28.536 20.829-46.556 23.755l-0.494 0.066c-3.487 0.681-6.367 1.418-9.184 2.294l0.615-0.165c-80.815 7.411-199.141 7.411-200.327 7.411zM456.435 371.308v159.501l155.81-81.597-155.756-77.878z" />
<glyph unicode="&#xe926;" glyph-name="clock" d="M512-64c-283.106 0-512 228.894-512 512s228.894 512 512 512c283.106 0 512-228.894 512-512s-228.894-512-512-512zM512 839.529c-216.847 0-391.529-174.682-391.529-391.529s174.682-391.529 391.529-391.529 391.529 174.682 391.529 391.529-174.682 391.529-391.529 391.529zM692.706 297.412c-12.047 0-18.071 0-24.094 6.024l-180.706 90.353c-18.071 12.047-36.141 30.118-36.141 54.212v271.059c0 36.141 24.094 60.235 60.235 60.235s60.235-24.094 60.235-60.235v-234.918l144.565-72.282c30.118-12.047 42.165-48.188 24.094-78.306-6.024-24.094-24.094-36.141-48.188-36.141z" />
<glyph unicode="&#xe989;" glyph-name="enlarge" d="M1024 960h-416l160-160-192-192 96-96 192 192 160-160zM1024-64v416l-160-160-192 192-96-96 192-192-160-160zM0-64h416l-160 160 192 192-96 96-192-192-160 160zM0 960v-416l160 160 192-192 96 96-192 192 160 160z" />
<glyph unicode="&#xe98a;" glyph-name="shrink" d="M576 512h416l-160 160 192 192-96 96-192-192-160 160zM576 384v-416l160 160 192-192 96 96-192 192 160 160zM448 384.004h-416l160-160-192-192 96-96 192 192 160-160zM448 512v416l-160-160-192 192-96-96 192-192-160-160z" />
<glyph unicode="&#xe9cb;" glyph-name="link" d="M440.236 324.234c-13.31 0-26.616 5.076-36.77 15.23-95.134 95.136-95.134 249.934 0 345.070l192 192c46.088 46.086 107.36 71.466 172.534 71.466s126.448-25.38 172.536-71.464c95.132-95.136 95.132-249.934 0-345.070l-87.766-87.766c-20.308-20.308-53.23-20.308-73.54 0-20.306 20.306-20.306 53.232 0 73.54l87.766 87.766c54.584 54.586 54.584 143.404 0 197.99-26.442 26.442-61.6 41.004-98.996 41.004s-72.552-14.562-98.996-41.006l-192-191.998c-54.586-54.586-54.586-143.406 0-197.992 20.308-20.306 20.306-53.232 0-73.54-10.15-10.152-23.462-15.23-36.768-15.23zM256-52c-65.176 0-126.45 25.38-172.534 71.464-95.134 95.136-95.134 249.934 0 345.070l87.764 87.764c20.308 20.306 53.234 20.306 73.54 0 20.308-20.306 20.308-53.232 0-73.54l-87.764-87.764c-54.586-54.586-54.586-143.406 0-197.992 26.44-26.44 61.598-41.002 98.994-41.002s72.552 14.562 98.998 41.006l192 191.998c54.584 54.586 54.584 143.406 0 197.992-20.308 20.308-20.306 53.232 0 73.54 20.306 20.306 53.232 20.306 73.54-0.002 95.132-95.134 95.132-249.932 0.002-345.068l-192.002-192c-46.090-46.088-107.364-71.466-172.538-71.466z" />
<glyph unicode="&#xe9d5;" glyph-name="contrast" d="M512 960c-282.77 0-512-229.23-512-512s229.23-512 512-512 512 229.23 512 512-229.23 512-512 512zM128 448c0 212.078 171.922 384 384 384v-768c-212.078 0-384 171.922-384 384z" />
<glyph unicode="&#xea1c;" glyph-name="play" d="M192 832l640-384-640-384z" />
<glyph unicode="&#xf03a;" glyph-name="list" d="M146.286 210.286v-109.714c0-9.714-8.571-18.286-18.286-18.286h-109.714c-9.714 0-18.286 8.571-18.286 18.286v109.714c0 9.714 8.571 18.286 18.286 18.286h109.714c9.714 0 18.286-8.571 18.286-18.286zM146.286 429.714v-109.714c0-9.714-8.571-18.286-18.286-18.286h-109.714c-9.714 0-18.286 8.571-18.286 18.286v109.714c0 9.714 8.571 18.286 18.286 18.286h109.714c9.714 0 18.286-8.571 18.286-18.286zM146.286 649.143v-109.714c0-9.714-8.571-18.286-18.286-18.286h-109.714c-9.714 0-18.286 8.571-18.286 18.286v109.714c0 9.714 8.571 18.286 18.286 18.286h109.714c9.714 0 18.286-8.571 18.286-18.286zM1024 210.286v-109.714c0-9.714-8.571-18.286-18.286-18.286h-768c-9.714 0-18.286 8.571-18.286 18.286v109.714c0 9.714 8.571 18.286 18.286 18.286h768c9.714 0 18.286-8.571 18.286-18.286zM146.286 868.571v-109.714c0-9.714-8.571-18.286-18.286-18.286h-109.714c-9.714 0-18.286 8.571-18.286 18.286v109.714c0 9.714 8.571 18.286 18.286 18.286h109.714c9.714 0 18.286-8.571 18.286-18.286zM1024 429.714v-109.714c0-9.714-8.571-18.286-18.286-18.286h-768c-9.714 0-18.286 8.571-18.286 18.286v109.714c0 9.714 8.571 18.286 18.286 18.286h768c9.714 0 18.286-8.571 18.286-18.286zM1024 649.143v-109.714c0-9.714-8.571-18.286-18.286-18.286h-768c-9.714 0-18.286 8.571-18.286 18.286v109.714c0 9.714 8.571 18.286 18.286 18.286h768c9.714 0 18.286-8.571 18.286-18.286zM1024 868.571v-109.714c0-9.714-8.571-18.286-18.286-18.286h-768c-9.714 0-18.286 8.571-18.286 18.286v109.714c0 9.714 8.571 18.286 18.286 18.286h768c9.714 0 18.286-8.571 18.286-18.286z" />
</font>
</defs>
</svg>
